#TITLE:Breakin' It Down;
#SUBTITLE:Live At The Hollywood Bowl (1994);
#ARTIST:Pan Dimensional Donkey Queefs;
#TITLETRANSLIT:;
#SUBTITLETRANSLIT:;
#ARTISTTRANSLIT:;
#CREDIT:;
#BANNER:bn.png;
#BACKGROUND:bg.png;
#LYRICSPATH:;
#CDTITLE:cdtitle.png;
#MUSIC:breakin it down.mp3;
#OFFSET:-0.360;
#SAMPLESTART:100.000;
#SAMPLELENGTH:11.820;
#SELECTABLE:YES;
#BPMS:0.000=132.280,4.500=123.860,12.000=113.040,12.500=117.040,14.250=115.860,15.000=91.360,19.250=70.900,20.000=124.920,23.000=133.760,33.000=135.180,33.833=104.740,36.000=123.560,44.250=115.720,46.500=82.100,48.000=115.900,52.000=108.860,52.250=106.220,53.000=113.880,54.000=107.060,55.500=120.660,56.000=117.080,59.500=125.500,60.000=121.080,60.500=103.440,60.750=116.660,61.500=123.180,63.000=123.980,64.000=117.600,67.500=117.800,70.250=111.780,71.000=136.180,72.000=116.400,77.000=128.820,79.000=123.780,87.000=133.800,88.000=127.360,92.000=136.000,95.000=130.360,102.500=122.320,108.000=131.760,110.000=127.920,116.000=123.280,119.000=126.080,121.000=139.300,123.000=146.120,124.000=118.180,128.000=131.440,135.917=133.000,136.000=156.260,137.000=130.960,143.750=271.061,145.000=128.700,146.750=144.320,147.500=118.460,148.000=122.880,150.000=135.300,153.000=119.400,156.000=148.240,157.000=128.580,161.000=124.160,164.500=157.000,165.000=125.000,171.000=146.220,171.500=123.780,172.000=143.840,172.250=134.600,172.500=131.840,174.500=122.620,177.000=129.020,178.000=126.560,181.000=124.540,192.000=119.980,193.000=122.320,195.000=112.680,195.500=167.120,196.000=111.420,196.500=116.260,197.000=114.660,198.000=137.140,199.750=132.720,200.500=126.080,201.833=116.440,203.250=124.060,204.000=152.480,204.500=145.120,205.000=131.460,207.000=128.200,209.000=128.800,210.000=134.840,211.000=126.640,211.500=117.600,212.250=142.060,213.000=137.260,214.000=130.440,216.250=150.100,217.000=136.880,218.000=129.260,225.000=124.840,225.750=117.220,226.250=133.640,226.500=148.460,227.000=137.640,227.250=130.020,227.500=139.240,227.750=134.020,228.000=128.800,228.250=127.780,229.000=132.200,232.500=129.360,244.000=126.540,247.250=123.720,247.750=102.080,248.000=131.340,249.000=97.700,249.500=204.620,250.000=125.120,251.250=135.140,252.000=128.540,254.000=136.580,255.250=129.760,258.000=119.740,258.500=131.360,259.000=145.380,261.000=130.940,266.000=124.140,269.000=134.660,272.000=125.440,273.000=132.260,276.000=135.080,276.750=135.180,277.500=128.620,278.000=124.420,280.500=128.040,281.500=130.060,284.000=138.480,285.000=135.660,287.500=132.040,289.000=128.380,291.000=130.000,291.500=126.760,293.000=123.940,302.000=127.780,302.750=120.960,304.500=128.580,307.500=126.760,310.000=123.140,311.000=116.320,311.500=108.900,313.500=96.460,314.500=104.880,316.000=101.640,324.000=127.700,326.000=124.080,326.500=144.920,326.563=151.740,327.000=136.120,328.000=126.900,331.000=121.680,333.000=138.520,334.000=131.700,335.000=128.880,336.000=129.040,336.500=139.060,337.000=122.620,339.500=124.440,340.000=135.820,340.563=171.060,341.000=147.440,341.500=136.620,342.000=130.980,343.667=127.340,343.833=115.720,345.000=124.560,345.833=121.740,346.250=88.100,348.000=139.340,351.750=184.980,354.000=145.320,360.000=159.380,360.500=142.700,362.000=134.280,362.250=175.921,367.500=135.880,379.500=144.300,380.250=151.920,380.500=152.441,380.500=158.740,381.000=185.980,382.000=155.160;
#STOPS:;
#BGCHANGES:;
// cache tags:
#FIRSTBEAT:0.000;
#LASTBEAT:392.563;
#SONGFILENAME:Songs/nhac/breakin it down (cetaka)/breakin it down.sm;
#HASMUSIC:1;
#HASBANNER:1;
#MUSICLENGTH:185.712;
// end cache tags

//---------------dance-single - ----------------
#NOTES:
     dance-single:
     :
     Hard:
     12:
     0.967,1.000,1.000,0.587,1.000,881.000,249.000,109.000,28.000,25.000:
0001
0000
0000
0000
0000
0000
0000
0000
0000
0000
0000
0000
0000
0000
0100
0000
0000
0000
0000
0000
0000
0000
0010
0000
1000
0000
0010
0000
0000
0000
0100
0000
0000
0000
0000
0001
0000
0000
0000
0000
0000
0000
0000
0000
0000
0000
0000
0000
0000
0000
0000
0000
0000
0000
0000
0000
0020
0000
0000
0000
0000
0000
0000
0000
,
0030
0000
0000
0000
0000
0000
0000
0000
0000
0000
0000
0000
0000
0000
0000
0000
0000
0000
0000
0000
0000
0000
0000
0000
1000
0000
0000
0000
0000
0000
0000
0000
0000
0000
0000
0000
1000
0000
0000
0000
0000
0000
0000
0000
0000
0000
0000
0000
0000
0000
0000
0000
0000
0000
0002
0000
0000
0000
0000
0000
0000
0000
0000
0000
0000
0000
0000
0000
0000
0000
0000
0000
0003
0000
0000
0000
0000
0000
0000
0000
0000
0000
0000
0000
0000
0000
0000
0000
0000
0000
0010
0000
0000
0000
0000
0000
1000
0000
0000
0000
0000
0000
0010
0000
0000
0000
0000
0000
0000
0000
0000
0000
1000
0000
0000
0000
0000
0000
0000
0000
0000
0000
0000
0000
0000
0000
0000
0000
0100
0000
0000
0000
0000
0000
0000
0010
0000
0000
0000
0000
0000
0000
0000
0000
0000
0000
0000
0000
0000
0000
0000
0000
0010
0000
0000
0000
0000
0000
0000
0000
0000
0000
0000
0000
0000
0000
0000
0000
0000
0000
0000
0000
0000
0000
0100
0000
0000
0000
0000
0000
0000
0000
0000
0000
1000
0000
0000
0000
0000
0000
0000
0000
,
0002
0000
0000
0000
0003
0000
0000
0100
0000
0000
0000
0000
0001
1000
0010
0100
0000
0000
1000
0001
0100
0000
0000
0010
0000
0000
0000
0000
0000
0000
0000
0000
,
0002
0000
0000
0000
0000
0000
0000
0000
0000
0000
0000
0000
0000
0000
0000
0000
0000
0000
0000
0000
0000
0000
0000
0000
0003
0000
0000
0000
0000
0000
0000
0000
0000
0000
0000
0000
0000
0000
0000
0000
0000
0000
0000
0000
0000
0000
0000
0000
0100
0000
0000
0000
0000
0000
0000
0000
0000
0000
0000
0000
0000
0000
0000
0000
0000
0000
0000
0000
0000
0000
0000
0000
0000
0000
0000
0000
0000
0000
0000
0000
0000
0000
0000
0000
0100
0000
0000
0000
0010
0000
0000
0000
0000
0000
0000
0000
0000
0000
0000
0000
0000
0000
0000
0000
0000
0000
0000
0000
0100
0000
0000
0010
0000
0000
0000
0000
0000
0000
0000
0000
0100
0000
0000
0000
0000
0000
0000
0000
0000
0000
0000
0000
0010
0000
0000
0000
0000
0000
0100
0000
0000
0000
0000
0000
0010
0000
0000
0000
0000
0000
0000
0000
0000
0000
0000
0000
0000
0000
0000
0000
0000
0000
0000
0000
0000
0000
0000
0000
0000
0000
0000
0000
0000
0000
0000
0000
0000
0000
0000
0000
0000
0000
0000
0000
0000
0000
0000
0000
0000
0000
0000
0000
,
0100
0000
0000
0000
0010
0000
0000
0100
0000
0000
0010
0000
0000
0000
0010
0000
0000
0000
0000
0010
0000
0000
0000
0010
0000
0000
0010
0000
0000
0000
0000
0000
,
0001
0000
0000
0000
0000
0000
0000
0000
0000
0000
0000
0000
0000
0000
0000
0000
0001
0000
0000
0000
0000
0000
0000
0000
0000
0000
0000
0000
0000
0000
0000
0000
0000
0000
0000
0000
0000
0000
0000
0000
0000
0000
0000
0000
0000
0000
0000
0000
0010
0000
0000
0000
0000
0000
0000
0000
0000
0000
0000
0000
0000
0000
0000
0000
0000
0000
0000
0000
0001
0000
0000
0000
0000
0000
0000
0000
0000
0000
0000
0000
0000
1000
0000
0000
0000
0000
0000
0000
0100
0000
0000
0000
0000
0000
0000
0000
0010
0000
0000
0000
0000
0000
0000
0000
0000
0000
0000
0000
0000
0000
0000
0000
0000
0000
0000
0000
0000
0000
0000
0000
0001
0000
0000
0000
0000
0000
0000
0000
0000
0000
0000
0000
0100
0000
0000
0000
0000
0000
0000
0000
0000
0000
0000
0000
0000
0000
0000
0000
0000
0000
0000
0000
0000
0000
0000
0000
0000
0000
0000
0000
0000
0000
0000
0000
0000
0000
0000
0000
0000
0000
0000
0000
0000
0000
0000
0000
0000
0000
0000
0000
0000
0000
0000
0000
0000
0000
0000
0000
0000
0000
0000
0000
,
1000
0000
0000
0000
0000
0000
0000
0000
0000
0000
0000
0000
0000
0000
0000
0000
0000
0000
0000
0000
0000
0000
0000
0000
0010
0000
0000
0000
0000
0000
0000
0000
0000
0000
0000
0000
0000
0000
0000
0000
0000
0000
0000
0000
0000
0000
0000
0000
0000
0000
0000
0000
0000
0000
1000
0000
0000
0000
0000
0000
0000
0000
0000
0000
0000
0000
0000
0000
0000
0000
0000
0000
0000
0000
0000
0000
0000
0000
0000
0000
0000
0001
0000
0000
0000
0000
0000
0000
0000
0000
0000
0000
0000
0000
0000
0000
0000
0000
0000
0000
0000
0000
0000
0000
0000
0000
0000
0000
0000
0000
0000
0000
0000
0000
0100
0000
0000
0000
0000
0000
0000
0000
0000
0000
0000
0000
0000
0000
0000
0000
0000
0000
0000
0000
0000
0000
0000
0000
0020
0000
0000
0000
0000
0000
0000
0000
0000
0000
0000
0000
0000
0000
0000
0000
0000
0000
0000
0000
0000
0000
0000
0000
0000
0000
0000
0000
0000
0000
0000
0000
0000
0000
0000
0000
0000
0000
0000
0000
0000
0000
0030
0000
0000
0000
0100
0000
0000
0000
0000
0000
0000
0000
,
0000
0000
0000
0000
0000
0000
0000
0000
0000
0000
0000
0000
0100
0000
0000
0000
0000
0000
0000
0000
0000
0000
0000
0000
0000
0000
0000
0000
0000
0000
0000
0000
0000
0000
0000
0000
0000
0000
0000
0000
0000
0000
0000
0000
0000
0000
0000
0000
0000
0000
0000
0000
0000
0000
0000
0000
0000
0000
0000
0000
0000
0000
0000
0000
0000
0000
0000
0000
0000
0000
0000
0000
0000
0000
0000
0000
0000
0000
0000
0000
0000
0000
0000
0000
0000
0000
0000
0000
0000
0000
0000
0000
0000
0000
0000
0000
0000
0000
0000
0000
0000
0000
0000
0000
0000
0000
0000
0000
0000
0000
0000
0000
0000
0000
0000
0000
0000
0001
0000
0000
0000
0000
0000
0000
0000
0000
0000
0000
0000
0000
0000
0000
0000
0000
0000
0010
0000
0000
0000
0000
0000
0000
0000
0000
0000
0000
0000
0000
0000
0000
0000
0000
0100
0000
0000
0000
0000
0000
0000
0000
1000
0000
0000
0000
0000
0000
0000
0000
0010
0000
0000
0000
0000
0000
0000
0000
0002
0000
0000
0000
0000
0000
0000
0000
0000
0000
0000
0000
0000
0000
0000
0000
,
0000
0000
0000
0000
0000
0000
0000
0000
0000
0000
0000
0000
0000
0000
0000
0000
0000
0000
0003
0000
0000
0000
0000
0000
0000
0000
0000
0000
0000
0000
0000
0000
0000
0000
0000
0000
0000
0000
0000
0000
0000
0000
0000
0000
0000
0000
0000
0000
1000
0000
0000
0000
0000
0000
0000
0000
0010
0000
0000
0000
0000
0000
0000
0000
0100
0000
0000
0000
0000
0000
0000
0000
0010
0000
0000
0000
0000
0000
0000
0000
0000
0000
0000
0000
0000
0000
0000
1000
0000
0000
0000
0000
0000
0000
0000
0000
0000
0000
0000
0000
0000
0000
0000
0000
0000
0000
0000
0000
0000
0000
0000
0000
0000
0000
0000
0000
0000
0000
0000
0000
0000
0000
0000
0000
0000
0000
0000
0000
0000
0000
0000
0000
0000
0000
0000
0000
0000
0000
0000
0000
0000
0000
0000
0000
0000
0000
0000
0000
0000
0000
0000
0000
0000
0000
0000
0000
0000
0000
0000
0000
0000
0000
0000
0000
0000
0000
0000
0000
0000
0000
0000
0000
0000
0000
0000
0000
0000
0000
0000
0000
0000
0000
0000
0000
0000
0000
0000
0000
0000
0000
0000
0000
,
1000
0000
0000
0000
0000
0000
0000
0000
0000
0000
0000
0000
0000
0000
0000
0000
0000
0000
1000
0000
0000
0000
0000
0000
1000
0000
0000
0000
0000
0000
0000
0000
0000
0000
0000
0000
0000
0000
0000
0010
0000
0000
0000
0000
0000
0000
0010
0000
,
0000
0000
0000
0000
0000
0000
0000
0000
0000
0000
0000
0000
0000
0000
0000
0000
0000
0000
0000
0000
0000
0000
0000
0000
1000
0000
0000
0000
0000
0000
0000
0000
0000
0000
0000
0000
0001
0000
0000
0000
0000
0000
0000
0000
0000
0000
0000
0000
0001
0000
0000
0000
0000
0000
0000
0000
0000
0000
0000
0000
0000
0000
0000
0000
0000
0000
0010
0000
0000
0000
0000
0000
0000
0000
0000
0000
0000
0000
0000
0000
0100
0000
0000
0000
0000
0000
0000
0000
0000
0000
0000
0000
0000
0000
0000
0000
1000
0000
0000
0000
0000
0000
0000
0000
0000
0000
0000
0000
0000
0000
0000
0000
0001
0000
0000
0000
0000
0000
0000
0000
0000
0000
0000
0000
0000
0000
0000
0000
0100
0000
0000
0000
0000
0000
0000
0000
0000
0000
0000
0000
0000
0000
0000
0000
0010
0000
0000
0000
0000
0000
0000
0000
0000
0000
0000
0000
0000
0000
0000
0000
0000
0000
0000
0000
0000
0000
0000
0000
0000
0000
0000
0000
0000
0000
0000
0000
0000
0000
0000
0000
0000
0000
0000
0000
0000
0000
0000
0000
0000
0000
0000
0000
,
0000
0000
0000
0000
0000
0001
0000
0000
1000
0100
0010
0000
0000
0000
0000
0000
,
1000
0000
1000
0000
0000
0000
0000
0000
0002
0003
0000
0000
1000
0000
0010
0000
0000
0000
1000
0000
0010
0000
0100
0000
0002
0003
0000
0000
0100
0000
0000
0000
,
1100
0000
1000
0000
0000
0000
0000
0000
0010
0000
0000
0000
1000
0000
0010
0000
0000
0000
0000
0000
0010
0000
0000
0000
0002
0003
0000
0000
0100
0000
0000
0000
,
1000
0000
0100
0000
0010
0000
0100
0000
0002
0003
0000
0000
0010
0000
1100
0000
0010
0000
0100
0000
1010
0000
0100
0000
0011
0000
0000
0000
0010
0000
0100
0000
,
1010
0100
0010
0100
0011
0000
0010
0101
0010
1000
0011
0100
1010
0000
0010
0100
,
1010
0000
0100
0000
0011
0000
1100
0000
1010
0000
0000
0000
0011
1000
0100
0000
0010
1000
0100
0000
0010
0000
0101
0000
0010
0000
0000
0000
0011
0000
0100
0000
,
1010
0000
0000
0000
0000
0000
0000
0000
0000
0000
0000
0000
0100
0000
0000
0000
0000
0000
0000
0000
0000
0000
0000
0000
0010
0000
0000
0000
0000
0000
0000
0000
0100
0000
0000
0000
0000
0000
0000
0000
0000
0000
0000
0000
0000
0000
0000
0000
0010
0000
0000
0000
0000
0000
0000
0000
0000
0000
0000
0000
0000
0000
0000
0000
0000
0000
0000
0000
0000
0000
0000
0000
0011
0000
0000
0000
0000
0000
1000
0000
0000
0000
0000
0000
0100
0000
0000
0000
0000
0000
0001
0000
0000
0000
0000
0000
0010
0000
0000
0000
0000
0000
0000
0000
0000
0000
0000
0000
0100
0000
0000
0000
0000
0000
0000
0000
0000
0000
0000
0000
0010
0000
0000
0000
0000
0000
0000
0000
0000
0000
0000
0000
0100
0000
0000
0000
0000
0000
0000
0000
0000
0000
0000
0000
0010
0000
0000
0000
0000
0000
0000
0000
0000
0000
0000
0000
0000
0000
0000
0000
0000
0000
0000
0000
0000
0000
0000
0000
0002
0000
0000
0000
0000
0000
0000
0000
0000
0000
0000
0000
2003
0000
0000
0000
0000
0000
0000
0000
0000
0000
0000
0000
,
3110
0000
0000
0000
0002
0003
0000
0000
0002
0003
0000
0000
0100
0000
1000
0000
1100
0000
0000
0000
0002
0003
0000
0000
0002
0003
0000
0000
0100
0000
1000
0000
,
1100
0000
0000
0000
0002
0003
0000
0000
0002
0003
0000
0000
0100
0000
1000
0000
1100
0000
0000
0000
0002
0003
0000
0000
0002
0003
0000
0000
0000
0000
0000
0000
,
0110
0000
0000
0000
0002
0003
0000
0000
0012
0003
0000
0000
0100
0000
1000
0000
1001
0000
0000
0000
0102
0003
0000
0000
1012
0003
0000
0000
0000
0000
0000
0000
,
1100
0000
0000
0000
0000
0000
0000
0000
0000
0000
0000
0000
0000
0000
0000
0000
0000
0000
0000
0000
0000
0000
0000
0000
0002
0000
0000
0000
0000
0000
0003
0000
0000
0000
0000
0000
0000
0000
0000
0000
0000
0000
0000
0000
0000
0000
0000
0000
0002
0000
0000
0000
0000
0000
0003
0000
0000
0000
0000
0000
0000
0000
0000
0000
0000
0000
0000
0000
0000
0000
0000
0000
0010
0000
0000
0000
0000
0000
0000
0000
0000
0000
0000
0000
1000
0000
0000
0000
0000
0000
0000
0000
0000
0000
0000
0000
0110
0000
0000
0000
0000
0000
0000
0000
0000
0000
0000
0000
0000
0000
0000
0000
0000
0000
0000
0000
0000
0000
0000
0000
0102
0000
0000
0000
0000
0000
0003
0000
0000
0000
0000
0000
0000
0000
0000
0000
0000
0000
0000
0000
0010
0000
0000
0000
1002
0000
0000
0000
0000
0000
0003
0000
0000
0000
0000
0000
0000
0000
0000
0000
0000
0000
0000
0000
0000
0000
0000
0000
0000
0000
0000
0000
0000
0000
0000
0000
0000
0000
0000
0000
0000
0000
0000
0000
0000
0000
0000
0000
0000
0000
0000
0000
,
1110
0000
0000
0000
0002
0003
0000
0000
0002
0003
0000
0000
0100
0000
1000
0000
0110
0000
0000
0000
0102
0003
0000
0000
1002
0003
0000
0000
0000
0000
0000
0000
,
1101
0000
0000
0000
0002
0003
0000
0000
0002
0003
0000
0000
0010
0000
0100
0000
1010
0000
0000
0000
0102
0003
0000
0000
1002
0003
0000
0000
0000
0000
0000
0000
,
1010
0100
0001
0010
0000
0001
0010
0100
,
1010
0000
0200
0000
0000
0300
0001
0000
0000
0010
0000
0000
0000
0000
0000
0001
0000
0000
0010
0000
0000
0100
0000
0000
,
1010
0000
0001
0010
0000
0001
0010
0100
,
1010
0000
0000
0000
0000
0000
1100
0000
0000
0010
0000
0000
1100
0000
0000
0010
0000
1000
1010
0000
0000
0100
0000
0000
,
1010
0000
0000
0000
0001
0000
0100
0000
0002
0003
0000
0000
1001
0000
0100
0000
0010
0000
1000
0000
0110
0000
0001
0000
1020
0030
0000
0000
0120
0030
0000
0000
,
1101
0000
0000
0000
0010
0000
0100
0000
0002
0003
0000
0000
1001
0000
0010
0000
0100
0000
1000
0000
0111
0000
1000
0000
0012
0003
1100
0000
0002
0003
0000
0000
,
1000
0000
0000
0000
0010
0000
0100
0000
0002
0003
0000
0000
0100
0000
0100
0000
0100
0000
0000
0000
0100
0000
0100
0000
0101
0000
0000
0000
0101
0000
0101
0000
,
0101
0000
0000
0000
0000
2000
0000
0000
0011
3000
0000
0000
0101
0000
0000
0000
1001
0000
0000
0000
0000
0000
0000
0000
0011
0000
0000
0000
1001
0000
0000
0000
1001
0000
0000
0000
0001
0000
0000
0000
1021
0000
0000
0000
0031
0000
0000
0000
0201
0000
0000
0000
0300
0000
0000
0000
1000
0000
0000
0000
0000
0000
0000
0000
,
0001
0010
0100
1000
0001
0010
0100
1000
0001
0010
0100
1000
0001
0010
0100
1000
0001
0010
0100
1000
0001
0100
1000
0100
0010
0001
1000
0100
0010
0001
0010
0100
,
1000
0001
0010
0100
1000
0001
0010
1000
0100
0010
0001
1000
0100
0010
0001
0010
0100
1000
0001
0010
0100
1000
0001
0010
1000
0100
0010
0001
1000
0100
0010
0001
,
1100
0000
0000
0000
0000
0000
0000
0000
1000
0100
0010
0001
1000
0100
0010
0001
1000
0100
0010
0001
1000
0100
0010
0001
1000
0100
0010
0001
1000
0100
0010
0001
,
1000
0000
0000
0000
0000
0000
0100
0000
0000
0000
0000
0000
0010
0000
0000
0000
0000
0000
0001
0000
0000
0000
0000
0000
1000
0000
0000
0000
0000
0000
0100
0000
0000
0000
0000
0000
0022
0000
0000
0000
0000
0000
0000
0000
0000
0000
0000
0000
0000
0000
0000
0000
0000
0000
0000
0000
0000
0000
0000
0000
0000
0000
0000
0000
0000
0000
0000
0000
0000
0000
0000
0000
0030
0000
0000
0000
0000
0000
0000
0000
0000
0000
0000
0000
0000
0000
0000
0000
0000
0000
0000
0000
0000
0000
0000
0000
0000
0000
0000
0000
0000
0000
0000
0000
0000
0000
0000
0000
0000
0000
0000
0000
0000
0000
0000
0000
0000
0000
0000
0000
0000
0000
0000
0000
0000
0000
0000
0000
0000
0000
0000
0000
0000
0000
0000
0000
0000
0000
0000
0000
0000
0000
0000
0000
0000
0000
0000
0000
0000
0000
0000
0000
0000
0000
0000
0000
0003
0000
0000
0000
1000
0000
0000
0000
0000
0000
0000
0000
0010
0000
0000
0000
0000
0000
0000
0000
0000
0000
0000
0000
1000
0000
0000
0000
0000
0000
0000
0000
0000
0000
0000
0000
,
0000
0000
0000
0000
0011
0001
0000
0000
1001
0000
0010
1000
0000
0100
1010
0000
,
0011
0000
0100
0000
1100
0000
0000
0000
0001
0000
0000
0001
0000
0001
1100
0000
,
0200
0000
0000
0000
0000
0000
0302
0000
0000
0000
0000
0000
2103
0000
0000
0000
0000
0000
0000
0000
3000
0000
0000
0000
0001
0000
0000
0000
0000
0000
0000
0000
0000
0002
0000
0000
0000
0000
0000
0003
0000
0000
1000
0000
0000
0001
0000
0000
,
0011
0000
1001
0001
0101
0001
0011
0001
,
1001
0000
0011
0100
1000
0100
0010
0100
,
1000
0100
1011
0100
0010
1110
1100
0010
,
0101
0001
1010
0000
0011
0000
1010
0000
0100
0000
0011
0000
0101
0000
0010
0000
,
0110
0000
1000
0000
0101
0000
0010
0000
0000
0000
0000
0000
1001
0000
0000
0000
0010
0000
0000
0000
0100
0001
0000
0000
1000
0000
0000
0000
0000
0000
0000
0000
,
0010
0100
0010
0000
0000
0000
0000
0000
1100
0000
0000
0000
0000
0000
0010
0000
0000
0000
0000
0000
1001
0000
0000
0000
0000
0000
0000
0000
0010
0000
0000
0000
,
0100
0000
0010
0000
1001
0000
0000
0010
0000
0000
1100
0000
0000
0010
0000
0000
,
0001
0000
0100
0000
1010
0000
0010
1001
0000
0000
0011
0000
0000
0101
0010
0000
,
0011
0000
0000
0100
0000
0000
1010
0000
0000
0000
0000
0000
0100
0000
0010
0000
1000
0000
0001
0000
0000
0000
0000
0000
0010
0000
0100
0000
0001
0000
1000
0000
0000
0000
0000
0000
0210
0000
0000
0000
0000
0000
0000
0000
0000
0000
0000
0000
,
0300
0000
0000
0000
1011
0000
0000
0000
0010
0000
0000
0010
0000
0010
1000
0000
,
1001
0000
0000
0000
0000
0000
0000
0000
0100
0000
0000
0000
0000
0000
0000
0000
0010
0000
0000
0000
0000
0000
0000
0000
0101
0000
0000
0000
0000
0000
0000
0000
0000
0000
0000
0000
0000
0000
0000
0000
0000
0000
0000
0000
0000
0000
0000
0000
2000
0000
0000
0000
0000
0000
0000
0000
0000
0000
0000
0000
0000
0000
0000
0000
0000
0000
0000
0000
0000
0000
0000
0000
0000
0000
0000
0000
0000
0000
0000
0000
0000
0000
0000
0000
0000
0000
0000
0000
0000
0000
0000
0000
0000
0000
0000
0000
3001
0000
0000
0000
0000
0000
0000
0000
0000
0000
0000
0000
0000
0000
0000
0000
0000
0000
0000
0000
0000
0000
0000
0000
0000
0000
0000
0000
0000
0000
0000
0000
0000
0000
0000
0000
0001
0000
0000
0000
0000
0000
0000
0000
0000
0000
0000
0000
0000
0000
0000
0000
0000
0000
0000
0000
0000
0000
0000
0000
0001
0000
0000
0000
0000
0000
1000
0000
0000
0000
0000
0000
0000
0000
0000
0000
0000
0000
0000
0000
0000
0000
0000
0000
0100
0000
0000
0000
0000
0000
0000
0000
0000
0000
0000
0000
,
0001
0000
0000
0000
0000
0000
0000
0000
0000
0000
0000
0000
0000
0000
0000
0000
0000
0000
0000
0000
0000
0000
0000
0000
0010
0000
0000
0000
0000
0000
0000
0000
0000
0000
0000
0000
0000
0000
0000
0000
0000
0000
0000
0000
0000
0000
0000
0000
1001
0000
0000
0000
0000
0000
0000
0000
0010
0000
0000
0000
0000
0000
0000
0000
0001
0000
0000
0000
0000
0000
0000
0000
0010
0000
0000
0000
0000
0000
0000
0000
0100
0000
0000
0000
0001
0000
0000
0000
1000
0000
0000
0000
0000
0000
0000
0000
0100
0000
0000
0000
0000
0000
0000
0000
0000
0000
0000
0000
0000
0000
0000
0000
0000
0000
0000
0000
0000
0000
0000
0000
0002
0000
0000
0000
0000
0000
0000
0000
0000
0000
0000
0000
0100
0000
0000
0000
0000
0000
0000
0000
0000
0000
0000
0000
0000
0000
0000
0000
0000
0000
0000
0000
0000
0000
0000
0000
0100
0000
0000
0000
0000
0000
1000
0000
0000
0000
0000
0000
0103
0000
0000
0000
0000
0000
0000
0000
0000
0000
0000
0000
0000
0000
0000
0000
0000
0000
0000
0000
0000
0000
0000
0000
,
0000
0000
0000
0000
0000
0000
0000
0000
0000
0000
0000
0000
2001
0000
0000
0010
0000
0000
0100
0000
0000
0010
0000
0000
0001
0000
0000
0010
0000
0000
0100
0000
0000
0010
0000
0000
3001
0000
0000
0010
0000
0000
0102
0003
0000
0010
0000
0000
,
2001
3000
0000
0010
0000
0000
0102
0003
0000
0010
0000
0000
1000
0000
0000
0000
0000
0000
0000
0000
0000
0100
0000
0000
0011
0000
0000
0000
0000
0000
0000
0000
0000
0001
0000
0000
0000
0000
0000
0000
0000
0000
0001
0000
0000
0000
0000
0000
,
0000
0010
0000
0000
0010
0000
0000
0000
2001
0000
0000
3001
0000
0200
0001
0000
,
0000
0001
0300
0000
1001
0000
0000
0000
2001
0000
0000
3001
0000
0200
0001
0000
,
0000
0001
0300
0000
0001
0000
0000
0000
0001
0000
0000
0001
0000
0000
0001
0000
,
0000
0000
0001
0000
0000
0000
0000
0000
0011
1100
0011
0000
0000
0000
1100
0000
0110
0000
0011
0000
1010
0000
0101
0000
0011
0000
1010
0000
1100
0000
1001
0000
,
0101
0000
0011
0000
1010
0000
0101
0000
1100
0011
1100
0000
0101
0000
1001
0000
1100
0000
0011
0000
1001
0110
1001
0000
0011
0000
0110
0000
1001
0000
1100
0011
,
1100
0000
0000
0101
0000
0000
1010
0000
0101
0000
1100
0000
0011
0000
0000
1010
0000
0000
0101
0000
0000
1100
0000
0000
0011
0000
0000
1010
0000
0000
0110
0000
0000
1001
0000
0100
1010
0000
0000
0101
0000
0000
1010
0000
0000
1001
0000
0000
,
0101
0000
0000
0011
0000
0000
1100
0000
0000
0101
0000
0010
1001
0000
0000
1100
0000
0000
0011
0000
0000
0101
0000
0000
1010
0000
0000
1100
0000
0000
0011
0000
1100
0000
0110
0001
1010
0000
0000
0101
0000
0000
1100
0000
0000
0011
0000
0000
,
1001
0000
0000
0000
0000
0000
0000
0000
0000
0000
0000
0000
1100
0000
0000
0000
0000
0000
0000
0000
0000
0000
0000
0000
0101
0000
0000
0000
0000
0000
0000
0000
0000
0000
0000
0000
1010
0000
0000
0000
0000
0000
0000
0000
0000
0000
0000
0000
1102
0000
0000
0000
0000
0000
0000
0000
0000
0000
0000
0000
1010
0000
0000
0000
0003
0000
0000
0000
0000
0000
0000
0000
0101
0000
0000
0000
0000
0000
0000
0000
0000
0000
0000
0000
0011
0000
0000
0000
0000
0000
0000
0000
0000
0000
0000
0000
1010
0000
0000
0000
0000
0000
0101
0000
0000
0000
0000
0000
1010
0000
0000
0000
0000
0000
0000
0000
0000
0000
0000
0000
0000
0000
0000
0000
0000
0000
0000
0000
0000
0000
0000
0000
0000
0000
0000
0000
0000
0000
0000
0000
0000
0000
0000
0000
0000
0000
0000
0000
0000
0000
0000
0000
0000
0000
0000
0000
0000
0000
0000
0000
0000
0000
0000
0000
0000
0000
0000
0000
0000
0000
0000
0000
0000
0000
0000
0000
0000
0000
0000
0000
0000
0000
0000
0000
0000
0000
0000
0000
0000
0000
0000
0000
,
2000
0000
0000
3000
0101
0000
0010
0000
1001
0000
0010
1001
0000
0010
1000
0001
,
0110
0000
0000
0000
1010
0000
0100
0000
0011
0000
0100
0011
0000
0100
1000
0010
,
0101
0000
0000
0000
1001
0000
0000
0000
1010
0000
0100
1010
0000
0001
1000
0100
,
0011
0000
0100
0000
1020
0030
0000
0000
0010
0000
2001
3210
0302
0003
0000
0000
,
0000
0000
0000
0000
1010
0000
0010
0000
0010
0000
0100
0010
0000
0100
0010
0000
,
0001
0000
0100
0010
0001
0001
0010
0000
0100
0000
1000
0010
0100
0100
0010
0001
,
0100
0100
0100
0100
1001
0010
0101
0010
0101
1000
0011
0101
0000
0010
1000
0000
,
0001
0000
1100
0110
0011
0100
0011
0100
1001
0100
0010
0101
1100
1010
0101
0011
,
1100
0000
1010
0000
0101
0000
0011
0000
0000
MMMM
0000
0000
0001
0000
0000
0000
2000
0000
3000
0000
0010
0000
0000
0000
0000
0000
0000
0000
0010
0000
0000
0000
,
0000
0010
0000
0010
0000
0020
0000
0030
,
0000
0000
0000
0010
0001
0110
0000
0001
,
0100
0001
0100
0000
0021
0130
0000
0021
,
0130
0021
0130
0000
0001
0100
0020
0031
,
0100
0000
0000
0000
0000
0000
0000
0000
0000
0000
0000
0000
0000
0000
0000
0000
0000
0000
0000
0000
0000
0000
0000
0000
0021
0000
0000
0000
0000
0000
0000
0000
0000
0000
0000
0000
0000
0000
0000
0000
0000
0000
0000
0000
0000
0000
0000
0000
0130
0000
0000
0000
0000
0000
0000
0000
0000
0000
0000
0000
0000
0000
0000
0000
0000
0000
0000
0000
0000
0000
0000
0000
0000
0000
0000
0000
0000
0000
0000
0000
0000
0000
0000
0000
0000
0000
0000
0000
0000
0000
0000
0000
0000
0000
0000
0000
0001
0000
0000
0000
0000
0000
0000
0000
0000
0000
0000
0000
0000
0000
0000
0000
0000
0000
0000
0000
0000
0000
0000
0000
0110
0000
0000
0000
0000
0000
0000
0000
0000
0000
0000
0000
0000
0000
0000
0000
0000
0000
1000
0000
0000
0000
0000
0000
0000
0000
0000
0000
0000
0000
0000
0000
0000
0000
0000
0000
0000
0000
0000
0000
0000
0000
0000
0000
0000
0000
0000
0000
0001
0000
0000
0000
0100
0000
0000
0000
0000
0000
0000
0000
0000
0000
0000
0000
0000
0000
0000
0000
0000
0000
0000
0000
,
0110
0000
0000
0000
1000
0000
0001
0000
0010
0000
0000
0000
0100
0000
0000
0000
0000
0000
0000
0000
0000
0000
0000
0000
0001
0000
0000
0001
0000
0000
0000
0000
0000
0010
0000
0000
0000
0000
0000
0000
0000
0000
0001
0000
0000
0000
0000
0000
,
0100
0000
0000
0000
1000
0000
0000
0000
0000
0000
0000
0000
0000
0000
0000
0000
0000
0000
0000
0000
0000
0000
0000
0000
0001
0000
0000
0001
0000
0000
0000
0000
0000
0010
0000
0000
0000
0000
0000
0000
0000
0000
0001
0000
0000
0000
0000
0000
,
0100
0000
0000
0000
1000
0000
0000
0000
0000
0000
0000
0000
0000
0000
0000
0000
0000
0000
0000
0000
0000
0000
0000
0000
0001
0000
0000
0001
0000
0000
0000
0000
0000
0010
0000
0000
0000
0000
0000
0000
0000
0000
0001
0000
0000
0000
0000
0000
,
0100
0000
0000
0000
1000
0000
0000
0000
0002
0000
0000
0000
0003
0000
0000
0000
0000
0000
2222
0000
0000
0000
0000
0000
0000
0000
0000
3333
0000
0000
2222
0000
0000
0000
0000
0000
0000
0000
0000
0000
0000
0000
0000
0000
0000
3333
0000
0000
,
M010
0000
0000
0000
0000
0000
0000
0000
0M0M
0000
0000
0000
00M0
0000
0000
0000
0000
0000
0000
0000
0000
2202
0000
0000
0010
0000
0000
0000
0000
0000
0000
0000
0000
0000
0000
0000
00M0
0000
0000
0000
0000
0000
0000
0000
0000
0000
0000
0000
0010
0000
0000
0300
0000
0000
0M00
0000
0000
0000
0000
0000
00M0
0000
0000
0003
0000
0000
0M00
0000
0000
0000
0000
0000
301M
0000
0000
0000
0000
0000
0M00
0000
0000
0000
0000
0000
M0M0
0000
0000
0000
0000
0000
000M
0000
0000
0000
0000
0000
01M0
0000
0000
0000
0000
0000
M00M
0000
0000
0000
0000
0000
0M00
0000
0000
0000
2022
0000
0000
0000
0000
0000
0000
0000
0000
0000
0000
0000
0000
0000
0000
0000
0M00
0000
0000
0000
0000
0000
0000
0000
0000
0000
0000
0000
0000
0100
0000
0000
0003
0000
0000
0000
0000
0000
000M
0000
0000
0000
0000
0000
0000
0000
0000
0000
3M01
0000
0000
0000
0000
0000
0000
0000
M000
0000
0000
0000
0000
0000
0000
0000
M03M
0000
0000
0000
0000
0000
0000
0000
00M0
0000
0000
0000
0000
0000
0000
0000
,
0000
0010
0100
0000
0000
0000
0000
0000
,
1001
0000
0000
0100
0001
0000
0000
0001
0000
0001
0100
0000
1001
0000
0000
0000
,
0011
0000
0000
0000
0000
0000
0000
0000
0000
0000
0000
0000
0000
0000
0000
1000
0001
0000
0000
0000
0000
0000
0000
0000
0000
0000
0000
0000
0001
0000
0000
0000
0000
0000
0000
0000
0001
0000
0000
0000
0100
0000
0000
0000
0000
0000
0000
0000
1001
0000
0000
0000
0020
0000
0000
0000
0030
0000
0000
0000
0000
0000
0000
0000
,
1100
0000
0000
1000
0001
0000
0000
0001
0000
0001
1000
1000
0011
0000
0000
0000
,
1001
0000
0200
0000
0301
0000
0200
0001
0300
0000
0200
0000
0300
0000
0100
0000
,
2020
0000
0000
0000
0000
0000
0000
0000
0000
0002
0000
0000
0000
0000
0000
0003
3030
0000
0000
0000
0010
0000
0000
0000
0100
0000
0000
0000
0100
0000
0000
0000
0001
0000
0000
0000
0010
0000
0000
0000
0100
0000
0000
0000
0001
0000
0000
0000
0000
0000
0000
0000
1000
0000
0000
0000
0000
0000
0000
0000
0000
0000
0000
0000
,
0000
0000
0000
0000
0000
0000
0000
0000
0000
0000
0000
0000
1000
0000
0000
0000
0100
0000
0000
0000
0000
0000
0001
0000
0000
0000
0000
0001
0000
0000
0000
0000
0000
0000
0000
0000
0000
0000
0000
0000
0000
0000
0000
0000
0000
0000
0000
0000
,
0001
0001
0100
0000
0010
0000
1000
0100
0000
0000
0000
0000
0000
0000
0000
0020
,
0000
0030
0000
0000
0000
0000
0000
0000
0001
0000
1000
0000
0001
0000
1000
0000
,
0002
0000
0000
0003
0000
0000
0000
0000
0000
0000
0000
0000
0000
0000
0000
0001
,
0100
0000
0000
0000
0000
0000
2000
0000
0000
0000
0000
0000
0000
0000
0000
0000
0000
0000
3000
0000
0000
0000
0000
0000
0100
0000
0000
0010
0000
0000
0000
0000
0000
0000
0000
0000
0100
0000
0000
0000
0010
0000
0000
0000
0000
0000
0001
0000
,
0000
2000
0000
0000
0000
0000
0000
0000
0000
0000
0000
0000
0000
0000
3000
0000
,
0000
0000
0000
0010
,
0000
0000
0000
0000
0000
0000
0000
0000
1000
0000
0000
0000
0000
0000
0000
0000
0000
0000
0000
0000
0000
0000
0000
0010
0000
0000
0000
0000
0000
0000
0000
0000
0000
0000
0000
0000
0000
0000
0000
0000
0000
0000
0000
0000
0000
0000
0000
0000
0000
0000
0000
0000
0000
0000
0000
0000
0000
0000
0000
0000
0000
0000
0000
0000
,
0000
0000
0000
0000
0000
0000
0000
0000
0000
0000
0000
0100
0000
0000
1000
0001
,
0010
0000
0000
0000
0000
0000
0000
0000
0100
0000
0000
0000
0000
0000
0000
1000
0000
0000
0000
0000
0000
0000
0000
0000
0000
0000
0000
0000
0000
0000
0000
0000
0010
0000
0000
0000
0000
0000
0000
0000
0000
0000
0000
0000
0000
0000
0000
0000
1000
0100
0010
0001
0000
0000
0000
0000
0000
0000
2222
0000
0000
0000
0000
0000
,
0000
0000
0000
0330
0000
3003
0200
0000
0000
0000
0000
0000
0000
0000
0000
0000
0000
0000
0000
0000
0000
0000
0000
0000
0000
0000
0000
0000
0000
0000
0000
0000
,
0320
0000
0030
0000
,
0000
0000
0000
0000
0000
0000
0000
0000
0000
0000
0000
0000
0000
0000
0000
0000
0100
0000
0000
0000
0000
0000
0000
0000
0000
0000
0000
0010
0000
0000
0000
0000
0000
0000
0000
0000
0000
0000
0000
0000
0000
0000
0000
0000
0000
0000
0000
0000
0000
0000
0000
0000
0000
0000
0000
0000
0000
0000
0000
0000
0000
0000
0000
0000
0000
0000
0000
0000
0000
0000
0000
0000
0000
0000
0000
0000
0000
0000
0000
0000
0000
0000
0000
0000
0000
0000
0000
0000
0000
0000
0000
0000
0000
0000
0000
0000
0000
0000
0000
0000
0000
0000
0000
0000
0000
0000
0000
0000
0000
0000
0000
0000
0000
0000
0000
0000
0000
0000
0000
0000
0000
0000
0000
0000
0000
0000
0000
0000
0000
0000
0000
0000
0000
0000
0000
0000
0000
0000
0000
0000
0000
0000
0000
0000
0000
0000
0000
0000
0000
0000
0000
0000
0000
0000
0000
0000
0000
0000
0000
0000
0000
0000
0000
0000
0000
0000
0000
0000
0000
0000
0000
0000
0000
0000
0000
0000
0000
0000
0000
0000
0000
0000
0000
0000
0000
0000
0000
0000
0000
0000
0000
0000
;
